Софт-Портал

Sting Flac скачать торрент

Рейтинг: 4.5/5.0 (26 проголосовавших)

Категория: Торрент-файлы

Описание

Скачать музыку Sting - The Best Of 25 Years (2011) через торрент

Скачать музыку Sting - The Best Of 25 Years (2CD) / [2011, Pop Rock, Soft Rock, FLAC] - торрент

Sting - The Best Of 25 Years (2CD)
Sting flac скачать торрент Формат: FLAC, (image + .cue), lossless
Год выпуска: 2011
Страна: Великобритания
Жанр: Pop Rock. Soft Rock
Продолжительность: 02:25:56
Описание:


CD 1:
01. If You Love Somebody Set Them Free
02. Love Is The Seventh Wave
03. Moon Over Bourbon Street
04. Fortress Around Your Heart
05. Englishman In New York
06. They Dance Alone
07. Fragile
08. We'll Be Together
09. All This Time
10. Mad About You
11. Why Should I Cry For You
12. The Soul Cages
13. If I Ever Lose My Faith In You
14. Fields Of Gold
15. Seven Days
16. Shape Of My Heart
-----------------------------------
Total time - 01:14:05

CD 2:
01. When We Dance
02. I Was Brought To My Senses
03. You Still Touch Me
04. I'm So Happy I Can't Stop Crying
05. Desert Rose
06. Brand New Day
07. Send Your Love (Dave Aude Remix)
08. Whenever I Say Your Name
09. Stolen Car (Take Me Dancing)
10. End Of The Game
11. Never Coming Home
12. Russians (Live)
13. Message In A Bottle (Live)
14. Demolition Man (Live)
15. Heavy Cloud No Rain (Live)
------------------------------
Total time - 01:12:51

Exact Audio Copy V0.99 prebeta 5 from 4. May 2009

Отчёт EAC об извлечении, выполненном 20. ноября 2011, 20:15

Sting / The Best Of 25 Years (CD 1)

Дисковод: PIONEER DVD-RW DVR-218L Adapter: 0 ID: 0

Режим чтения. Достоверность
Использование точного потока. Да
Отключение кэша аудио. Да
Использование указателей C2. Нет

Коррекция смещения при чтении. 6
Способность читать области Lead-in и Lead-out. Нет
Заполнение пропущенных сэмплов тишиной. Да
Удаление блоков с тишиной в начале и конце. Нет
При вычислениях CRC использовались нулевые сэмплы. Да
Интерфейс. Встроенный Win32-интерфейс для Win NT/2000

Выходной формат. Пользовательский кодировщик
Выбранный битрейт. 128 kBit/s
Качество. Высокий
Добавление ID3-тэга. Нет
Утилита сжатия. C:\Program Files (x86)\Exact Audio Copy\Flac\flac.exe
Дополнительные параметры. -5 -V -T "ARTIST=%a" -T "TITLE=%t" -T "ALBUM=%g" -T "DATE=%y" -T "TRACKNUMBER=%n" -T "GENRE=%m" -T "COMMENT=EAC FLAC -5" %s

TOC извлечённого CD

Трек | Старт | Длительность | Начальный сектор | Конечный сектор
---------------------------------------------------------------------
1 | 0:00.00 | 4:24.65 | 0 | 19864
2 | 4:24.65 | 3:33.12 | 19865 | 35851
3 | 7:58.02 | 4:01.21 | 35852 | 53947
4 | 11:59.23 | 4:52.11 | 53948 | 75858
5 | 16:51.34 | 4:26.61 | 75859 | 95869
6 | 21:18.20 | 7:13.56 | 95870 | 128400
7 | 28:32.01 | 3:54.39 | 128401 | 145989
8 | 32:26.40 | 4:46.11 | 145990 | 167450
9 | 37:12.51 | 4:55.05 | 167451 | 189580
10 | 42:07.56 | 3:54.23 | 189581 | 207153
11 | 46:02.04 | 4:46.08 | 207154 | 228611
12 | 50:48.12 | 5:52.03 | 228612 | 255014
13 | 56:40.15 | 4:28.38 | 255015 | 275152
14 | 61:08.53 | 3:39.54 | 275153 | 291631
15 | 64:48.32 | 4:39.39 | 291632 | 312595
16 | 69:27.71 | 4:37.31 | 312596 | 333401

Характеристики диапазона извлечения и сообщения об ошибках

Имя файла F:\_МУЗЫКА\Sting The Best Of 25 Years (2 CD)\2011 The Best Of 25 Years (CD 1).wav

Пиковый уровень 98.8 %
Качество диапазона 99.9 %
CRC теста 7CEC2C99
CRC копии 7CEC2C99
Копирование. OK

Ошибок не произошло

Трек 1 нет в базе данных
Трек 2 нет в базе данных
Трек 3 нет в базе данных
Трек 4 нет в базе данных
Трек 5 нет в базе данных
Трек 6 нет в базе данных
Трек 7 нет в базе данных
Трек 8 нет в базе данных
Трек 9 нет в базе данных
Трек 10 нет в базе данных
Трек 11 нет в базе данных
Трек 12 нет в базе данных
Трек 13 нет в базе данных
Трек 14 нет в базе данных
Трек 15 нет в базе данных
Трек 16 нет в базе данных

Ни одного трека нет в базе AccurateRip

Exact Audio Copy V0.99 prebeta 5 from 4. May 2009

Отчёт EAC об извлечении, выполненном 21. ноября 2011, 10:25

Sting / The Best Of 25 Years (CD 2)

Дисковод: PIONEER DVD-RW DVR-218L Adapter: 0 ID: 0

Режим чтения. Достоверность
Использование точного потока. Да
Отключение кэша аудио. Да
Использование указателей C2. Нет

Коррекция смещения при чтении. 6
Способность читать области Lead-in и Lead-out. Нет
Заполнение пропущенных сэмплов тишиной. Да
Удаление блоков с тишиной в начале и конце. Нет
При вычислениях CRC использовались нулевые сэмплы. Да
Интерфейс. Встроенный Win32-интерфейс для Win NT/2000

Выходной формат. Пользовательский кодировщик
Выбранный битрейт. 128 kBit/s
Качество. Высокий
Добавление ID3-тэга. Нет
Утилита сжатия. C:\Program Files (x86)\Exact Audio Copy\Flac\flac.exe
Дополнительные параметры. -5 -V -T "ARTIST=%a" -T "TITLE=%t" -T "ALBUM=%g" -T "DATE=%y" -T "TRACKNUMBER=%n" -T "GENRE=%m" -T "COMMENT=EAC FLAC -5" %s

TOC извлечённого CD

Трек | Старт | Длительность | Начальный сектор | Конечный сектор
---------------------------------------------------------------------
1 | 0:00.00 | 5:59.60 | 0 | 26984
2 | 5:59.60 | 5:49.68 | 26985 | 53227
3 | 11:49.53 | 3:48.25 | 53228 | 70352
4 | 15:38.03 | 3:58.14 | 70353 | 88216
5 | 19:36.17 | 4:51.10 | 88217 | 110051
6 | 24:27.27 | 6:20.42 | 110052 | 138593
7 | 30:47.69 | 3:16.53 | 138594 | 153346
8 | 34:04.47 | 5:25.39 | 153347 | 177760
9 | 39:30.11 | 3:57.62 | 177761 | 195597
10 | 43:27.73 | 6:08.58 | 195598 | 223255
11 | 49:36.56 | 5:21.00 | 223256 | 247330
12 | 54:57.56 | 4:53.50 | 247331 | 269355
13 | 59:51.31 | 4:48.53 | 269356 | 291008
14 | 64:40.09 | 4:27.28 | 291009 | 311061
15 | 69:07.37 | 3:43.44 | 311062 | 327830

Характеристики диапазона извлечения и сообщения об ошибках

Имя файла F:\_МУЗЫКА\Sting The Best Of 25 Years (2 CD)\2011 The Best Of 25 Years (CD 2).wav

Пиковый уровень 97.7 %
Качество диапазона 100.0 %
CRC теста 3CF9E0D2
CRC копии 3CF9E0D2
Копирование. OK

Ошибок не произошло

Трек 1 нет в базе данных
Трек 2 нет в базе данных
Трек 3 нет в базе данных
Трек 4 нет в базе данных
Трек 5 нет в базе данных
Трек 6 нет в базе данных
Трек 7 нет в базе данных
Трек 8 нет в базе данных
Трек 9 нет в базе данных
Трек 10 нет в базе данных
Трек 11 нет в базе данных
Трек 12 нет в базе данных
Трек 13 нет в базе данных
Трек 14 нет в базе данных
Трек 15 нет в базе данных

Ни одного трека нет в базе AccurateRip

Sting flac скачать торрент

Sting flac скачать торрент:

  • скачать
  • скачать
  • Другие статьи

    Pop) CD Sting - The Best Of - 2002, FLAC (image

    Sting / The Best Of
    Жанр. Pop
    Носитель. CD
    Страна-производитель диска (релиза). RU
    Год издания. 2002
    Страна исполнителя (группы). Britain
    Аудиокодек. FLAC (*.flac)
    Тип рипа. image+.cue
    Битрейт аудио. lossless
    Источник (релизер). ZhenyaShot
    Наличие сканов в содержимом раздачи. да

    Треклист:

    1. Fragile
    2. A Thousand Years
    3. Desert Rose
    4. La Belle Damme Sans Regrets
    5. Mad About You
    6. Fields Of Gold
    7. Englishman In New York
    8. Moon Over Burbon Street
    9. Perfect Love Gone Wrong
    10. When We Dance
    11. Let Your Soul, Be Your Pilot
    12. De Do Do Do, De Da Da Da
    13. Every Breath You Take
    14. (If You Love Someone) Set Them Free
    15. Roxanne
    16. Ain't No Sunshine (c) David Sanborn, vocal
    17. It's Probably Me
    18. How Insensetive (feat A C Jobim)
    19. Shape Of My Heart

    Лог создания рипа Содержание индексной карты (.CUE) Скриншот спектра частот

    Зарегистрирован [ 2017-09-03 23:30 ] · 4D5BC2857FBD1021056390F23AF8249A94E38D86

    Sting flac скачать торрент

    Sting - Дискография cтудийные альбомы (1985 - 2010, FLAC) скачать через торрент бесплатно

    Продолжительность: 10 альбомов, 128 треков - общее время 8ч. 41м. 13с.
    Формат/Кодек: FLAC (image+.cue)
    Битрейт аудио: Lossless

    1985 The Dream Of The Blue Turtles

    01. If You Love Somebody Set Them Free 04:16
    02. Love Is The Seventh Wave 03:32
    03. Russians 03:58
    04. Children's Crusade 05:01
    05. Shadows In The Rain 04:50
    06. We Work The Black Seam 05:42
    07. Consider Me Gone 04:20
    08. The Dream Of The Blue Turtles 01:17
    09. Moon Over Bourbon Street 04:00
    10. Fortress Around Your Heart 04:40

    1987 Nothing Like The Sun

    01. The Lazarus Heart 04:36
    02. Be Still My Beating Heart 05:34
    03. Englishman In New York 04:27
    04. History Will Teach Us Nothing 04:59
    05. They Dance Alone (Cuecu Solo) 07:15
    06. Fragile 03:56
    07. We'll Be Together 04:55
    08. Straight To My Heart 03:54
    09. Rock Steady 04:28
    10. Sister Moon 03:46
    11. Little Wing 05:11
    12. The Secret Marriage 02:03

    1991 The Soul Cages

    01. Island Of Souls 06:41
    02. All This Time 04:54
    03. Mad About You 03:53
    04. Jeremiah Blues (Part 1) 04:54
    05. Why Should I Cry For You? 04:46
    06. Saint Agnes And The Burning Train 02:42
    07. The Wild Wild Sea 06:41
    08. The Soul Cages 05:52
    09. When The Angels Fall 07:48

    1993 Ten Summoner's Tales

    01. Prologue (If I Ever Lose My Faith In You) 04:30
    02. Love Is Stronger Than Justice (The Munificent Seven) 05:11
    03. Fields Of Gold 03:42
    04. Heavy Cloud No Rain 03:47
    05. She's Too Good For Me 02:30
    06. Seven Days 04:39
    07. Saint Augustine In Hell 05:17
    08. It's Probably Me 05:09
    09. Everybody Laughed But You 03:53
    10. Shape Of My Heart 04:38
    11. Something The Boy Said 05:28
    12. Epilogue (Nothing 'Bout Me) 03:42

    1996 Mercury Falling

    01. The Hounds Of Winter 05:26
    02. I Hung My Head 04:40
    03. Let Your soul Be Your Pilot 06:43
    04. I Was Brought To My Senses 05:50
    05. You Still Touch Me 03:46
    06. I'm So Happy I Can't Stop Crying 03:57
    07. All Four Seasons 04:28
    08. Twenty Five To Midnight 04:08
    09. La Belle Dame Sans Regrets 05:16
    10. Valparaiso 05:27
    11. Lithium Sunset 02:37

    1999 Brand New Day

    01. A Thousand Years 05:58
    02. Desert Rose 04:45
    03. Big Lie Small World 05:05
    04. After The Rain Has Fallen 05:03
    05. Perfet Love. Gone Wrong 05:24
    06. Tomorrow We'll See 04:49
    07. Prelude To The End Of The Game 00:20
    08. Fill Her Up 05:38
    09. Ghost Story 05:29
    10. Brand New Day 06:29
    11. Windmills Of Your Mind 04:16

    01. Inside 04:47
    02. Send Your Love (Ft. Vicente Amigo) 04:38
    03. Whenever I Say Your Name (Ft. Mary J. Blige) 05:27
    04. Dead Man's Rope 05:43
    05. Never Coming Home 04:59
    06. Stolen Car 03:58
    07. Forget About The Future 05:12
    08. This War 05:30
    09. The Book Of My Life (Ft. Anoushka Shankar) 06:16
    10. Sacred Love 06:02
    11. Send Your Love (Dave AudЁ¦ Remix) 03:17
    12. Shape Of My Heart (Live From '. All This Time') 02:19

    2006 Songs From The Labyrinth

    01. Walsingham 00:38
    02. Can She Excuse My Wrongs 02:35
    03. 'Ryght Honorable. ' 00:40
    04. Flow My Tears 04:42
    05. Have You Seen The Bright Lily Grow 02:35
    06. '. Then In Time Passing On. ' 00:32
    07. The Galliard 03:01
    08. The Lowest Trees Have Tops 02:16
    09. '. And Accordinge As I Desired Ther Cam A Letter. ' 00:55
    10. Fine Knacks For Ladies 01:50
    11. '. From Thence I Went To The Landgrave Of Hessen. ' 00:24
    12. Fantasy 02:42
    13. Come, Heavy Sleep 03:45
    14. Forlorn Hope Fancy 03:07
    15. '. And From Thence I Had Great Desire To See Italy. ' 00:28
    16. Come Again 02:56
    17. Wilt Thou Unkind Thus Reave Me 02:40
    18. '. After My Departure I Caled To Mynde. ' 00:29
    19. Weep You No More, Sad Fountains 02:38
    20. My Lord Willoughby's Welcome Home 01:34
    21. Clear Or Cloudy 02:47
    22. '. Men Say That The Kinge Of Spain. ' 01:01
    23. In Darkness Let Me Dwell 04:12

    2009 If On A Winter's Night

    01. Gabriel's Message 02:34
    02. Soul Cake 03:29
    03. There Is No Rose Of Such Virtue 04:04
    04. The Snow It Melts The Soonest 03:44
    05. Christmas At Sea 04:38
    06. Lo, How A Rose E'er Blooming 02:42
    07. Cold Song 03:16
    08. The Burning Babe 02:45
    09. Now Winter Comes Slowly 03:06
    10. The Hounds Of Winter 05:51
    11. Balulalow 03:10
    12. Cherry Tree Carol 03:12
    13. Lullaby For An Anxious Child 02:50
    14. The Hurdy-Gurdy Man 02:51
    15. You Only Cross My Mind In Winter 02:35

    01. Next To You 02:30
    02. Englishman In New York 04:23
    03. Every Little Thing She Does Is Magic 04:58
    04. I Hung My Head 05:31
    05. You Will Be My Ain True Love 03:44
    06. Roxanne 03:37
    07. When We Dance 05:26
    08. The End Of The Game 06:08
    09. I Burn For You 04:04
    10. We Work The Black Seam 07:18
    11. She's Too Good For Me 03:03
    12. The Pirate's Bride 05:07
    13. Straight To My Heart 04:08

    Стинг (англ. Sting) — творческий псевдоним Гордона Мэтью Самнера (англ. Gordon Matthew Sumner), британского музыканта, актёра, общественного деятеля и филантропа. Стинг родился 2 октября 1951 года в Уолсенде, Англия.
    До начала сольной карьеры Стинг был вокалистом, бас-гитаристом и основным автором песен рок-группы The Police. На протяжении своей музыкальной карьеры Стинг получил 16 наград Grammy, первую из которых ему вручили за «лучшее инструментальное рок-выступление» в 1981 году. Кроме того, он был номинирован на премию Oscar за лучшую песню к фильму; его имя внесено в Зал славы рок-н-ролла и Зал славы авторов песен. Стинг — командор Ордена Британской империи.

    В начале 1980-х на душевное самочувствие Стинга, равно как и на стабильность возглавляемой им группы The Police, оказал его развод с первой супругой Фрэнсис, хотя отношения бывших партнеров остались «приятельскими».
    С Фрэнсис остались дети: сын Джо (11 лет) и дочь Кэтрин (5). И «приятельство» не помешало первой жене Стинга в конце 1987 года обратиться в суд с иском на недостаточную финансовую обеспеченность. У Стинга к тому времени была новая семья: жена Труди, дочь и сын. Тогда же, в 1983-4 годах начала закладываться основа первого сольного диска «The Dream of the Blue Turtle» и концертных программ.
    Нужно отметить, что философичность и углубленный психологизм песен этого альбома явились естественным продолжением настроя последнего диска трио. Весь лонгплей отличало полнокровное соединение белой сочинительской и исполнительской рафинированности с негритянской экспрессивностью остальных членов группы сопровождения.
    Возникла необходимая для творчества цельная атмосфера репетиций и записи, отмеченная коллективным согласием, шутками, усталостью, полетом и блеском всех участников, соединения, перешагивающего обычные рамки взаимодействия «звезды» с группой сопровождения. Участие, например, саксофониста Брэнфорда Марсалиса или ударника Омара Хакима далеко вышло за границы участия приглашенного ремесленника-профессионала. Все эти факторы делают «The Dream of the Blue Turtle» совершенно отличным от созданных примерно в то же время альбомов других протагонистов жанра, например «Let’s Dance» Дэвида Боуи (с участием, кстати, того же Омара Хакима).
    Хотя не было очевидной хитовой направленности, очень успешной в чартах оказалась «If You Love Somebody (Set Them Free»), текст которой достаточно однозначно намекал на недавние семейные неприятности Стинга. И другие песни удерживали необходимый баланс между танцевальностью (подчеркнутой легким ритмом регги) и камерностью, ярко высветившейся в драматичности текста, как например, в очень напоминающей Тома Уэйтса «Moon over Burbon street».
    Отдельных слов заслуживает песня «Russians» с участием ленинградского симфонического оркестра, с цитатами из Прокофьева и текстом, актуально откликающимся на нынешние политические реалии. Из песни могла бы получиться обыкновенная агитка, но Стинг этой опасности миновал. В целом альбом оказался сборником сильных песен без слабых мест. Таким же по качеству оказалось и последовавшее позже крупное гастрольное турне и фильм режиссера Мартина Скорсезе, в который продюсер вложил два миллиона долларов.
    Фильм этот не добился сногсшибательного коммерческого успеха, но, тем не менее, убедительно доказал, что настоящая «звезда» сможет достойно проявить себя и в поп-музыке. А что касается соединения рока и джаза, то оно было настолько естественным, что смогло увлечь даже подростковую аудиторию. Еще одним доказательством качества соединения песенной камерности и роковой формы стало выступление Стинга с Марсалисом и Филом Коллинзом на концертной акции «Живая помощь» в 1985 году.
    К тем же временам относятся и многочисленные роли, сыгранные Стингом в фильмах режиссеров Майкла Эптеда (очень интересный видеофильм «Bring on the Night»), Maртина Скорсезе (роль Понтия Пилата в фильме «Последнее искушение Христа»), Дэвида Линча. И хотя сам Стинг утверждал, что «решительно не хочет быть актером», его кинематографический опыт дал значительный импульс в концертной деятельности, а также в подготовке видеоклипов. «Моей маме и всем, кто ее любил», - так звучит посвящение с альбома «Nothing Like the Sun».
    Мать Стинга скончалась в июле 1987 года, как раз во время завершения работы над диском, но этот трагический случай придал певцу новые усилия для создания наиболее убедительного результата. А когда в декабре того же года от той же болезни скончался отец, худшего начала для огромного кругосветного турне трудно было представить. Но, несмотря на все эти события, перед слушателями предстал замечательный музыкант в сопровождении не менее выдающейся группы.
    В противоположность спонтанности диска «The Dream of the Blue Turtle» на следующем альбоме подход более рациональный, с использованием возможностей современной компьютерной техники. Интимный трепет перкуссии Мино Чинелу, равно как и синтезаторная раскрашенность фанково-танцевального хита «We’ll Bе Together» или гитарные парады Эрика Клэптона и Марка Нопфлера производят сильнейшее впечатление, без искажения или потери динамики, которыми грешат многие диски, записанные с участием «звезд».
    Навеянное Шекспиром название альбома вводит слушатели в мир волшебного сомнамбулизма в песне «Sister Moon», здесь же рассказ о фиктивном браке («The Secret Marriage»), повесть о трагичной судьбе Средней Америки и людей, в ней живущих («Fragile»). В звуке, аранжировке и продюсерской работе очевидна завершенность, временами переходящая в утрату спонтанности. Во всяком случае, альбом добился первой премии Британской грамзаписи как лучший диск 1987 года. Этот успех (равно как, разумеется, и финансовый), помог Стингу вместе с Коуплендом основать фирму Рangea.
    В 1988 году он начал участвовать в деятельности организации «Международная Амнистия», заботился о судьбе бразильских лесов и проживающих там индейцев. На его автобиографическом студийном диске есть американский хит «All this Time». Альбом «Soul Cages» (1991) отличался меланхоличностью, настроением сгущенной печали, причиной которых стали еще не зажившие после смерти родителей сердечные раны. А исключительный по качеству лонгплей «Ten Simmoner’s Tales» (1993) вновь был отмечен характерным для музыканта юмором и светом (он включал хитовые синглы «If I Ever Lose My Faith In You» и «Fields of Gold»).
    В том же году песня «All for Love», записанная тройственным союзом Стинг - Род Стюарт - Брайан Адамс - вознеслась на вершину хит-парадов. Удивительное мастерство, интеллигентность и душевность Стинга - композитора, автора текстов, певца - подтвердили его последующие альбомы «Mercury Falling» (1996) и «Brand New Day» (1999), причем за последний - в высшей степени жизнеутверждающий, одухотворенный, пронизанный идеей концепутальности диск - артист получил две премии «Грэмми».
    И хотя имя Стинга не мелькает в скандальных хрониках и, скорее, стало даже нарицательным обозначением «примерного семьянина» (кстати, именно счастливая семейная жизнь, по признанию самого артиста, подтолкнула его на создание «Brand New Day»), он остается одним из самых востребованных исполнителей сегодняшнего дня, а его музыка - «богатой пищей для ума и сердца, настоящим праздником для рок-гурманов».

    Sting flac скачать торрент

    Sting - Symphonicities (2010) FLAC


    Sting flac скачать торрент

    Sting - Symphonicities

    Год: 2010
    Жанр: Pop-Rock. Soft Rock. Classic
    Страна: UK
    Продолжительность: 55:47
    Формат/Кодек: FLAC
    Битрейт аудио: Lossless

    Треклист
    01. Next to You (2:30)
    02. Englishman In New York (4:23)
    03. Every Little Thing She Does Is Magic (4:57)
    04. I Hung My Head (5:32)
    05. You Will Be My Ain True Love (3:44)
    06. Roxanne (3:38)
    07. When We Dance (5:27)
    08. The End of the Game (6:07)
    09. I Burn For You (4:04)
    10. We Work the Black Seam (7:19)
    11. She's Too Good For Me (3:03)
    12. The Pirate's Bride (5:03)

    Переработки классических песен Стинга с оркестровой поддержкой.

    10 из 10 (2 голосов, самая низкая оценка - 10, самая высокая - 10)

    22-05-2014 17:19:45 (32 секунды назад)

    20-07-2010 12:42:56 (47 месяцев назад)

    309.26 MB (324279451 Bytes)

    Sting flac скачать торрентSting flac скачать торрент Sting - The Last Ship [Live at The Public Theater in NYC] (2014) HDTVRip 720p от HDLine

    Sting flac скачать торрентSting flac скачать торрент Sting - The Last Ship [Live at The Public Theater in NYC] (2014) HDTVRip от Занавес

    Sting flac скачать торрентSting flac скачать торрент Sting (The Police) - Collection (1978-2013) MP3 от IMA-Sound

    Sting flac скачать торрентSting flac скачать торрент Sting - Дискография [cтудийные альбомы] (1985 - 2013) FLAC

    Sting flac скачать торрентSting flac скачать торрент Sting - Дискография [cтудийные альбомы] (1985 - 2013) MP3

    Sting flac скачать торрентSting flac скачать торрент Sting - The Last Ship (2013) MP3

    Sting flac скачать торрентSting flac скачать торрент OST - Разрушитель / Demolition Man [Sting, Elliot Goldenthal] (1993) MP3

    Sting flac скачать торрентSting flac скачать торрент Scorpions - Love At First Sting 24 KT + Gold CD (1984/2012) Mp3

    Происходит загрузка списка файлов.

    28-07-2010 11:44:06 (46 месяцев назад)

    20-07-2010 23:21:15 (47 месяцев назад)

    Спасибо за качество!

    Все файлы предоставлены пользователями сайта для свободного обмена. Рутор.org и наши серверы не располагают какими-либо цифровыми копиями аудио-визуальных произведений, мы храним только информацию о них и торрент-файлы, загруженными пользователями для обмена. Для направления жалоб на нарушения исключительных авторских прав, пожалуйста, пишите на email pollyfuckingshit(гав-гав)ro[точка]ру с темой "удалить не читая" или "авторские права"

    Скачать Scorpions - Love At First Sting (1984) FLAC 2

    - Scorpions - Love At First Sting (1984) -

    Sting flac скачать торрент


    Год: 1984
    Страна-производитель диска: UK
    Производство: EMI / Harvest
    Номер по каталогу: SHSP 24-0007-1
    Жанр: Hard Rock
    Продолжительность: 00:41:17
    Автор оцифровки: Bigbeer - Кодек: FLAC 2.0
    Формат записи: 32/96
    Формат раздачи: 24/96
    Тип рипа: image+.cue - Треклист:
    A1. Bad Boys Running Wild (3:55)
    A2. Rock You Like A Hurricane (4:12)
    A3. I'm Leaving You (4:18)
    A4. Coming Home (5:00)
    A5. The Same Thrill (3:34)
    B1. Big City Nights (4:10)
    B2. As Soon As The Good Times Roll (5:04)
    B3. Crossfire (4:36)
    B4. Still Loving You (6:28)

    Technical info:

    Код класса состояния винила: EX
    Устройство воспроизведения: Technics SL-1200MK3D
    Головка звукоснимателя: Audio Technica AT150MLX
    Предварительный усилитель: Cambridge Audio 651P
    Межблочник: Oehlbach
    АЦП: Asus Xonar Essence ST
    Программа-оцифровщик: Sony SoundForge Pro 11.0
    Обработка: удалил несколько щелчков, fade in / out (Adobe Audition CC 7.0.1.5)

    MI:

    General
    Complete name : H:\VinylRip\Scorpions - Love At First Sting (1984)(VR Harvest SHSP 24-0007-1 UK)\Scorpions - Love At First Sting.flac
    Format : FLAC
    Format/Info : Free Lossless Audio Codec
    File size : 925 MiB
    Duration : 41mn 17s
    Overall bit rate mode : Variable
    Overall bit rate : 3 132 Kbps
    Album : Love At First Sting
    Track name/Total : 9
    Performer : Scorpions
    Producer : Harvest, SHSP 24-0007-1
    Genre : Hard Rock
    Recorded date : 1984
    Cover : Yes
    Cover type : Cover (front)
    Cover MIME : image/jpeg
    Comment : rip by Bigbeer/Technics SL-1200MK3D/Audio Technica AT150MLX/Cambridge Audio 651P/Oehlbach/Asus Xonar Essence ST
    CONTENTGROUP : Bigbeer
    cuesheet : REM GENRE Hard Rock / REM DATE 1984 / REM DISCID SHSP 24-0007-1 / REM COMMENT rip by Bigbeer/Technics SL-1200MK3D/Audio Technica AT150MLX/Cambridge Audio 651P/Oehlbach/Asus Xonar Essence ST / PERFORMER "Scorpions" / TITLE "Love At First Sting" / FILE "Scorpions - Love At First Sting.flac" WAVE / TRACK 01 AUDIO / TITLE "Bad Boys Running Wild" / INDEX 01 00:00:00 / TRACK 02 AUDIO / TITLE "Rock You Like A Hurricane" / INDEX 01 03:55:30 / TRACK 03 AUDIO / TITLE "I'm Leaving You" / INDEX 01 08:07:47 / TRACK 04 AUDIO / TITLE "Coming Home" / INDEX 01 12:25:36 / TRACK 05 AUDIO / TITLE "The Same Thrill" / INDEX 01 17:25:23 / TRACK 06 AUDIO / TITLE "Big City Nights" / INDEX 01 20:59:15 / TRACK 07 AUDIO / TITLE "As Soon As The Good Times Roll" / INDEX 01 25:08:73 / TRACK 08 AUDIO / TITLE "Crossfire" / INDEX 01 30:12:70 / TRACK 09 AUDIO / TITLE "Still Loving You" / INDEX 01 34:49:05
    Audio
    Format : FLAC
    Format/Info : Free Lossless Audio Codec
    Duration : 41mn 17s
    Bit rate mode : Variable
    Bit rate : 3 131 Kbps
    Channel(s) : 2 channels
    Sampling rate : 96.0 KHz
    Bit depth : 24 bits
    Stream size : 925 MiB (100%)
    Writing library : libFLAC 1.0.25 (UTC 2007-09-17)

    Спектр, Уровень, АЧХ:

    Sting flac скачать торрент

    Dynamic Range Meter:

    foobar2000 1.3.3 (cdpos.biz) / Замер динамического диапазона (DR) 1.1.1
    Дата отчёта: 2015-06-18 20:44:07
    --------------------------------------------------------------------------------
    Анализ: Scorpions / Love At First Sting
    --------------------------------------------------------------------------------
    DR Пики RMS Продолжительность трека
    --------------------------------------------------------------------------------
    DR15 -2.37 дБ -19.22 дБ 3:55 1-Bad Boys Running Wild
    DR15 -2.37 дБ -19.10 дБ 4:12 2-Rock You Like A Hurricane
    DR15 -2.35 дБ -19.98 дБ 4:18 3-I'm Leaving You
    DR13 -2.49 дБ -20.42 дБ 5:00 4-Coming Home
    DR12 -5.66 дБ -19.07 дБ 3:34 5-The Same Thrill
    DR13 -3.94 дБ -18.51 дБ 4:10 6-Big City Nights
    DR14 -3.90 дБ -19.85 дБ 5:04 7-As Soon As The Good Times Roll
    DR11 -3.48 дБ -19.03 дБ 4:36 8-Crossfire
    DR11 -3.96 дБ -18.71 дБ 6:28 9-Still Loving You
    --------------------------------------------------------------------------------
    Количество треков: 9
    Реальные значения DR: DR13
    Частота: 96000 Гц
    Каналов: 2
    Разрядность: 24
    Битрейт: 3131 кбит/с
    Кодек: FLAC
    ================================================================================

    Яблоки:

    Sting flac скачать торрентSting flac скачать торрент

    Время раздачи: 24x7